<?xml version="1.0" standalone="no"?>
<!DOCTYPE svg PUBLIC "-//W3C//DTD SVG 1.1//EN" "http://www.w3.org/Graphics/SVG/1.1/DTD/svg11.dtd" >
<svg xmlns="http://www.w3.org/2000/svg">
<metadata>Generated by IcoMoon</metadata>
<defs>
<font id="icomoon" horiz-adv-x="1024">
<font-face units-per-em="1024" ascent="960" descent="-64" />
<missing-glyph horiz-adv-x="1024" />
<glyph unicode="&#x20;" horiz-adv-x="512" d="" />
<glyph unicode="&#xe900;" glyph-name="footer-facebook" d="M502.374-62.976v0c-282.214 5.325-506.675 238.592-501.35 520.806 2.662 132.096 56.32 258.253 149.709 351.642 199.68 199.475 523.264 199.27 722.739-0.614s199.27-523.264-0.614-722.739c-63.693-63.488-142.95-109.158-229.99-132.301v328.090h110.182l17.408 140.493h-127.386v96.666c0 40.96 11.469 68.403 67.584 68.403h72.090v125.542c-34.816 3.891-70.042 5.734-105.062 5.53-108.134 0-175.309-71.066-175.309-185.754v-110.592h-114.688v-140.493h114.688v-344.678z" />
<glyph unicode="&#xe901;" glyph-name="footer-instagram" d="M511.386-62.976c-281.805 0-510.362 228.557-510.362 510.362 0 135.373 53.862 265.216 149.504 360.858 198.656 200.090 521.626 201.114 721.715 2.662s201.114-521.626 2.662-721.715c-0.819-0.819-1.843-1.843-2.662-2.662-95.642-96.051-225.485-149.914-360.858-149.504zM513.434 754.995c-53.248 0-101.376-0.819-128.614-1.843-47.923 1.024-94.413-16.794-129.229-49.766-53.043-53.043-52.429-123.085-51.814-220.16 0-11.469 0.205-23.347 0.205-35.635 0-11.469 0-22.528-0.205-33.382-0.614-102.195-1.024-169.779 51.814-222.618 48.128-48.128 111.002-52.019 188.416-52.019 10.24 0 20.48 0 31.539 0.205h0.205c11.469 0 23.552 0.205 35.84 0.205h3.482c113.664 0 156.262 0 197.837 16.179 44.851 17.408 99.328 60.211 104.243 164.454 2.662 55.091 2.662 194.765 0 253.542-5.325 111.821-67.174 173.67-178.79 178.79-26.010 1.434-72.704 2.048-124.928 2.048zM562.586 195.277v0h-85.197c-102.81 0-149.709 1.434-183.91 35.635-37.274 37.069-36.659 91.955-35.635 174.899 0.205 13.312 0.205 27.034 0.205 41.574 0 12.493-0.205 24.576-0.205 36.25-0.614 60.826-1.024 113.254 14.746 150.938 17.203 40.55 53.043 60.826 113.050 63.898h2.253c30.515 1.024 41.984 1.434 122.266 1.434l1.229-0.819h0.819c11.469 0 22.733 0 33.587 0.205s21.299 0.205 31.539 0.205c56.73 0 98.304-3.277 129.229-19.661 35.226-18.842 52.838-53.248 55.296-108.544 1.434-32.768 1.843-42.394 1.843-124.314 0-7.373 0-14.336 0-21.094v-0.205c0.205-112.64 0.205-159.334-35.84-195.379-32.154-31.744-73.114-35.021-165.274-35.021zM511.386 605.286c-87.245 0-157.901-70.656-157.901-157.901s70.656-157.901 157.901-157.901 157.901 70.656 157.901 157.901c0 87.245-70.656 157.901-157.901 157.901zM675.635 648.499c-20.48 0-36.864-16.589-36.864-36.864 0-20.48 16.589-36.864 36.864-36.864s36.864 16.589 36.864 36.864v0c0 20.275-16.589 36.864-36.864 36.864v0zM511.386 344.986c-56.525 0-102.4 45.875-102.4 102.4s45.875 102.4 102.4 102.4c56.525 0 102.4-45.875 102.4-102.4 0-27.238-10.854-53.248-29.901-72.294-19.251-19.251-45.261-30.106-72.499-30.106z" />
<glyph unicode="&#xe902;" glyph-name="footer-linkedin" d="M511.386-62.976c-281.805 0-510.362 228.557-510.362 510.362 0 135.373 53.862 265.216 149.504 360.858 198.656 200.090 521.626 201.114 721.715 2.662s201.114-521.626 2.662-721.715c-0.819-0.819-1.843-1.843-2.662-2.662-95.642-96.051-225.485-149.914-360.858-149.504zM615.219 437.555c60.621 0 60.621-57.344 60.621-99.328v-182.682h116.326l0.205 206.029c0 92.774-16.998 178.381-139.469 178.381-45.056 1.434-87.245-21.709-110.182-60.621h-1.638v51.2h-111.821v-375.194h116.326v186.163c-0.205 47.514 8.192 96.051 69.632 96.051zM239.616 530.739v-374.989h116.531v374.989h-116.531zM297.984 717.517c-37.478 0.205-67.994-30.106-67.994-67.379-0.205-37.478 30.106-67.994 67.379-67.994s67.994 30.106 67.994 67.379c0 0.205 0 0.41 0 0.614 0 37.069-30.31 67.379-67.379 67.379z" />
<glyph unicode="&#xe903;" glyph-name="footer-telegram" d="M511.386-62.976c-281.805 0-510.362 228.557-510.362 510.362 0 135.373 53.862 265.216 149.504 360.858 198.656 200.090 521.626 201.114 721.715 2.662s201.114-521.626 2.662-721.715c-0.819-0.819-1.843-1.843-2.662-2.662-95.642-96.051-225.485-149.914-360.858-149.504zM499.712 306.893v0l127.386-93.184c6.144-3.891 13.312-5.939 20.48-6.349 12.698 0 21.504 9.626 25.6 27.853l83.558 391.782c3.686 11.469 2.048 23.962-4.506 33.997-4.506 5.325-11.059 8.397-18.022 8.192-4.301 0-8.602-0.819-12.698-2.458l-491.52-188.211c-16.589-6.554-26.010-14.95-25.805-23.142 0.205-6.963 7.578-13.107 20.070-16.998l125.747-39.117 291.84 182.682c4.096 2.867 8.806 4.506 13.722 4.71 3.072 0 5.325-1.024 5.939-2.662s-0.614-4.506-3.482-7.168l-236.339-212.173-9.216-129.024c10.035 0 19.456 4.506 25.6 12.288l61.645 58.982z" />
<glyph unicode="&#xe904;" glyph-name="footer-twitter" d="M511.386-62.976c-281.805 0-510.362 228.557-510.362 510.362 0 135.373 53.862 265.216 149.504 360.858 198.656 200.090 521.626 201.114 721.715 2.662s201.114-521.626 2.662-721.715c-0.819-0.819-1.843-1.843-2.662-2.662-95.642-96.051-225.485-149.914-360.858-149.504zM224.051 230.093v0c53.862-34.611 116.531-53.043 180.634-52.838 91.136-1.024 178.79 35.84 242.074 101.581 63.488 66.765 97.075 156.672 92.979 248.832 23.142 16.589 43.213 37.274 58.982 61.235-21.709-9.421-44.442-15.565-67.789-18.637 24.576 14.541 43.213 37.888 51.814 65.126-23.142-13.722-48.333-23.347-74.752-28.467-44.442 47.514-118.989 49.971-166.502 5.53-23.757-22.323-37.274-53.453-37.274-86.016-0.205-9.011 0.819-18.022 2.662-26.829-94.822 4.915-182.886 49.562-242.893 123.29-31.539-53.862-15.565-122.88 36.25-157.491-18.637 0.41-36.864 5.53-53.248 14.541v-1.229c0.205-56.115 39.526-104.243 94.413-115.712-10.035-2.662-20.48-3.891-30.925-3.891-7.578-0.205-14.95 0.614-22.323 2.048 15.565-47.923 59.597-80.896 109.978-82.125-41.779-32.563-93.184-50.176-146.022-50.176-9.216-0.41-18.637 0.205-28.058 1.229z" />
<glyph unicode="&#xe905;" glyph-name="arroba" d="M510.362 957.542c-281.395-0.205-509.338-228.352-509.338-509.747 0-281.19 228.147-509.338 509.338-509.338 113.254 0 223.437 36.659 314.163 104.448 20.275 15.565 23.962 44.442 8.397 64.512-15.565 20.275-44.442 23.962-64.512 8.397-74.547-55.706-165.069-85.811-258.048-86.016-231.014 1.229-416.973 189.645-415.744 420.454 1.229 231.014 189.645 416.973 420.454 415.744 228.762-1.229 414.106-186.368 415.744-415.13v-45.875c-1.024-50.79-43.008-91.341-93.798-90.317-49.562 1.024-89.293 40.755-90.317 90.317v230.195c0 25.395-20.685 46.080-46.080 46.080s-46.080-20.685-46.080-46.080v-2.867c-41.37 31.744-92.16 48.947-144.179 48.947-127.181 0-230.195-103.014-230.195-230.195s103.014-230.195 230.195-230.195c67.584 0 132.096 28.877 177.357 79.258 57.754-83.558 172.442-104.448 256-46.694 49.766 34.406 79.462 91.136 79.462 151.757v46.080c-2.867 280.781-231.834 506.88-512.819 506.266zM510.362 312.422c-76.595 0-138.65 62.259-138.65 138.854s62.054 138.65 138.65 138.65c76.595 2.867 141.107-56.73 143.974-133.53 2.867-76.595-56.73-141.107-133.53-143.974-3.482-0.205-6.963-0.205-10.445 0z" />
<glyph unicode="&#xe906;" glyph-name="clock" d="M512 958.976c-282.214 0-510.976-228.762-510.976-510.976s228.762-510.976 510.976-510.976 510.976 228.762 510.976 510.976v0c-0.205 282.010-228.966 510.771-510.976 510.976zM754.893 183.603c-16.589-16.589-43.418-16.589-60.211 0 0 0 0 0 0 0l-212.992 212.582c-7.987 7.987-12.493 19.046-12.493 30.31v276.89c0 23.552 19.046 42.598 42.394 42.598 23.552 0 42.598-19.046 42.598-42.394 0 0 0 0 0 0v-259.072l200.499-200.499c16.794-16.794 16.794-43.622 0.205-60.416 0 0.205 0 0.205 0 0v0z" />
<glyph unicode="&#xe907;" glyph-name="instagram" d="M512.205 710.351c-144.794 0-262.144-117.35-262.144-262.144s117.35-262.144 262.144-262.144 262.144 117.35 262.144 262.144v0c0 144.794-117.35 262.144-262.144 262.144 0 0 0 0 0 0zM512.205 278.018c-94.003 0-170.189 76.186-170.189 170.189s76.186 170.189 170.189 170.189 170.189-76.186 170.189-170.189v0c0-94.003-76.186-170.189-170.189-170.189 0 0 0 0 0 0zM722.739 955.701c-94.003 4.301-326.861 4.096-421.069 0-79.462 1.434-156.467-28.262-214.426-82.534-98.304-98.304-85.606-230.605-85.606-424.96 0-198.861-11.059-328.090 85.811-424.96 98.714-98.509 233.062-85.811 424.96-85.811 196.813 0 264.806 0 334.438 26.829 94.618 36.659 166.093 121.242 173.056 273.408 4.506 94.003 4.096 326.861 0 421.069-8.806 179.405-104.858 287.949-297.165 296.96zM871.424 88.373c-64.512-64.512-153.805-58.778-360.653-58.778-212.992 0-298.189-3.072-360.653 59.392-71.68 71.475-58.778 186.163-58.778 359.834 0.205 235.315-23.962 404.685 212.173 416.768 54.272 1.843 70.246 2.662 206.848 2.662l1.843-1.229c226.918 0 404.89 23.757 415.539-212.378 2.458-53.862 3.072-70.246 3.072-206.438 0-210.534 4.096-296.346-59.392-359.834v0zM846.029 720.796c0-33.819-27.416-61.235-61.235-61.235s-61.235 27.416-61.235 61.235c0 33.819 27.416 61.235 61.235 61.235s61.235-27.416 61.235-61.235z" />
<glyph unicode="&#xe908;" glyph-name="left" d="M828.416 59.904l-388.506 388.301 388.506 387.891-122.88 122.88-509.952-511.795 121.651-121.651 0.205 0.205 388.096-388.71 122.88 122.88z" />
<glyph unicode="&#xe909;" glyph-name="linkedin" d="M1022.771-62.362h0.205v374.374c0 183.091-39.526 324.198-253.542 324.198-81.92 3.072-158.925-39.322-200.294-110.182h-3.072v92.979h-202.957v-681.574h211.354v337.715c0 88.883 16.794 174.694 126.771 174.694 108.339 0 110.182-101.376 110.182-180.429v-331.776h211.354zM19.251 619.008h211.558v-681.574h-211.558v681.574zM124.723 958.362c-67.994 0.41-123.494-54.477-123.699-122.47s54.682-123.494 122.675-123.699c67.994-0.205 123.494 54.682 123.699 122.675 0 0.41 0 0.819 0 1.229 0 67.379-54.886 122.266-122.675 122.266z" />
<glyph unicode="&#xe90a;" glyph-name="location" d="M512 958.976c-211.558-0.205-382.976-171.622-383.181-383.181 0-282.624 353.69-618.701 368.64-633.037 8.192-7.782 20.89-7.782 29.082 0 15.155 14.131 368.64 350.208 368.64 633.037-0.205 211.558-171.622 382.976-383.181 383.181zM512 362.803c-117.555 0-212.992 95.232-212.992 212.992s95.232 212.992 212.992 212.992 212.992-95.232 212.992-212.992c-0.205-117.555-95.437-212.787-212.992-212.992z" />
<glyph unicode="&#xe90b;" glyph-name="Menu" d="M90.317 958.976h843.571c44.851 0 81.101-36.25 81.101-81.101v0c0-44.851-36.25-81.101-81.101-81.101h-843.571c-44.851 0-81.101 36.25-81.101 81.101v0c0 44.851 36.25 81.101 81.101 81.101zM90.317 520.909h843.571c44.851 0 81.101-36.25 81.101-81.101v0c0-44.851-36.25-81.101-81.101-81.101h-843.571c-44.851 0-81.101 36.25-81.101 81.101v0c0 44.851 36.25 81.101 81.101 81.101zM82.125 83.046h859.75c40.346 0 72.909-32.768 72.909-72.909v0c0-40.346-32.768-72.909-72.909-72.909h-859.75c-40.346 0-72.909 32.768-72.909 72.909v0c0 40.141 32.563 72.909 72.909 72.909z" />
<glyph unicode="&#xe90c;" glyph-name="phone" d="M995.123 208.998l-142.541 142.541c-36.454 37.683-96.461 38.502-134.144 2.048-10.854-10.445-19.046-23.347-23.757-37.683-16.794-45.67-64.717-71.68-112.026-61.235-101.786 25.395-239.411 157.901-264.806 264.806-12.902 47.718 14.131 97.075 61.235 112.026 49.562 16.794 76.186 70.656 59.392 120.218-4.915 14.336-12.902 27.238-23.757 37.683l-142.746 142.746c-38.912 35.635-98.714 35.635-137.421 0l-96.87-96.666c-96.87-101.786 10.24-371.917 249.651-611.328s509.338-351.232 611.123-249.651l96.87 96.87c35.43 38.912 35.43 98.714-0.205 137.626z" />
<glyph unicode="&#xe90d;" glyph-name="printer" d="M827.392 757.043h-630.784c-11.059 0-20.070 9.216-20.070 20.275v52.838c-0.41 48.947 38.912 89.088 87.859 89.498h495.002c48.947-0.41 88.269-40.55 87.859-89.498v-53.043c0-10.854-8.806-19.866-19.866-20.070zM915.251 691.917h-806.502c-60.006-0.614-108.339-49.766-107.725-109.773v-382.157c-0.41-60.006 47.718-109.158 107.725-109.773h67.789v162.611c-0.614 80.077 63.693 145.613 143.77 146.432h383.181c80.077-0.819 144.384-66.355 143.77-146.432v-162.611h67.789c60.006 0.614 108.339 49.766 107.725 109.773v382.157c0.614 60.211-47.514 109.158-107.52 109.773zM192.717 448c-27.034 0.614-48.333 23.142-47.514 49.971 0.614 26.010 21.504 46.899 47.514 47.514v0c27.034-0.614 48.333-23.142 47.514-49.971-0.614-26.010-21.504-46.899-47.514-47.514zM703.693 301.568h-383.386c-26.624-0.205-48.128-22.118-47.923-48.742 0 0 0 0 0 0v-227.738c-0.205-26.624 21.094-48.538 47.923-48.742 0 0 0 0 0 0h383.181c26.624 0.205 48.128 22.118 47.923 48.742 0 0 0 0 0 0v227.738c0.41 26.624-21.094 48.538-47.718 48.742 0 0 0 0 0 0z" />
<glyph unicode="&#xe90e;" glyph-name="right" d="M195.584 836.096l388.71-388.301-388.71-387.891 122.88-122.88 510.157 511.59-121.651 121.651-0.205-0.205-388.301 388.915-122.88-122.88z" />
<glyph unicode="&#xe90f;" glyph-name="Search" d="M465.306 56.013c-258.662 0-464.282 197.837-464.282 437.658-3.686 243.507 205.619 441.549 464.282 441.549s464.282-197.837 464.282-437.658c0.205-243.712-209.101-441.549-464.282-441.549zM465.306 820.941c-194.15 0-350.208-144.589-350.208-323.584s156.058-323.584 350.208-323.584 350.208 144.589 350.208 323.584-156.058 323.584-350.208 323.584zM967.885-39.219c-15.155 0-30.515 3.891-41.779 15.155l-209.51 209.51c-22.938 22.938-22.938 57.139 0 79.872 22.938 22.938 57.139 22.938 79.872 0l209.306-209.306c22.938-22.938 22.938-57.139 0-79.872-7.578-7.782-22.733-15.36-37.888-15.36z" />
<glyph unicode="&#xe910;" glyph-name="telegram" d="M402.022 313.446l-16.794-236.134c18.432-0.205 35.84 8.192 47.104 22.733l113.459 107.52 235.11-171.008c43.008-23.962 73.523-11.264 84.992 39.322l154.214 718.029c13.722 63.283-23.142 88.064-65.126 72.499l-906.445-344.678c-61.85-23.962-61.030-58.163-10.445-73.728l231.834-71.68 538.419 334.643c25.395 16.589 48.333 7.373 29.491-9.216l-435.814-388.301z" />
<glyph unicode="&#xe911;" glyph-name="twitter" d="M917.914 656.077c41.37 29.491 76.8 66.355 105.062 108.749v0c-38.502-16.794-79.053-27.853-120.627-33.178 43.827 26.010 76.595 67.379 92.16 115.917-41.165-24.371-86.016-41.574-132.915-50.79-79.053 84.378-211.558 88.883-296.141 9.83-42.394-39.731-66.355-95.027-66.355-152.986-0.205-15.974 1.434-32.154 4.915-47.718-168.55 8.192-325.632 88.064-431.923 219.136-55.91-95.642-27.648-218.522 64.512-279.962-33.178 0.819-65.536 9.83-94.618 25.805v-2.253c0.205-99.738 70.246-185.754 167.936-205.824-18.022-4.71-36.454-6.963-54.886-6.963-13.312-0.205-26.624 1.024-39.731 3.482 27.853-85.197 106.086-143.77 195.789-146.022-74.138-57.958-165.683-89.498-259.686-89.498-16.794 0-33.382 0.819-49.971 2.867 95.846-61.645 207.462-94.413 321.331-94.003 327.066-2.253 594.125 260.915 596.378 587.981-0.205 11.878-0.614 23.757-1.229 35.43z" />
<glyph unicode="&#xe912;" glyph-name="close-delete" d="M176.356 860.444l-76.8-76.8c-19.911-19.911-19.911-54.044 0-76.8l261.689-261.689-261.689-261.689c-19.911-19.911-19.911-54.044 0-76.8l73.956-73.956c19.911-19.911 54.044-19.911 76.8 0l261.689 261.689 261.689-261.689c19.911-19.911 54.044-19.911 76.8 0l73.956 73.956c19.911 19.911 19.911 54.044 0 76.8l-261.689 264.533 261.689 261.689c19.911 19.911 19.911 54.044 0 76.8l-73.956 73.956c-19.911 19.911-54.044 19.911-76.8 0l-261.689-261.689-261.689 261.689c-19.911 19.911-54.044 19.911-73.956 0z" />
<glyph unicode="&#xe913;" glyph-name="share" d="M864.64 640c0.251-0.001 0.549-0.002 0.846-0.002 88.807 0 160.8 71.993 160.8 160.8s-71.993 160.8-160.8 160.8c-88.807 0-160.8-71.993-160.8-160.8 0-14.794 1.998-29.121 5.738-42.727l-0.265 1.129-424.48-212.48c-29.559 37.441-74.945 61.254-125.894 61.254-88.366 0-160-71.634-160-160s71.634-160 160-160c50.721 0 95.93 23.601 125.244 60.421l0.25 0.325 424-211.52c-3.445-12.391-5.425-26.62-5.425-41.311 0-88.366 71.634-160 160-160s160 71.634 160 160c0 88.366-71.634 160-160 160-51.017 0-96.458-23.878-125.756-61.067l-0.259-0.341-424 211.36c3.644 12.54 5.74 26.945 5.74 41.84s-2.096 29.3-6.009 42.936l0.269-1.096 424 212.4c29.549-37.829 75.168-61.92 126.414-61.92 0.136 0 0.272 0 0.407 0.001h-0.021z" />
<glyph unicode="&#xe914;" glyph-name="arrow" d="M853.333 405.333h-682.667c-25.6 0-42.667 17.067-42.667 42.667s17.067 42.667 42.667 42.667h682.667c25.6 0 42.667-17.067 42.667-42.667s-17.067-42.667-42.667-42.667zM597.333 149.333c-12.8 0-21.333 4.267-29.867 12.8-17.067 17.067-17.067 42.667 0 59.733l226.133 226.133-226.133 226.133c-17.067 17.067-17.067 42.667 0 59.733s42.667 17.067 59.733 0l256-256c17.067-17.067 17.067-42.667 0-59.733l-256-256c-8.533-8.533-17.067-12.8-29.867-12.8z" />
</font>
</defs>
</svg>
